DNS SERVER AENDERNum der staatlichen Zensur zu umgehen. Sollten wir von eurem Provider geseprrt werden, nutzt den TOR BROWSER oder ändert euren DNS SERVER.

Filmwünsche können bei uns im Forum abgegeben werden

Wir Speichern Nicht




 
 
 
Top Releases
Deadpool.2.Super.Duper.Cut.2...
Diplomatie.2014.German.AC3.1...
Die.Spur.2017.GERMAN.1080p.B...
Die.Spur.2017.GERMAN.720p.Bl...
Ataris.Reise.2018.German.DL....
Ataris.Reise.2018.German.720...
Stronger.2017.German.DL.1080...
Stronger.2017.German.720p.Bl...
Nur.Gott.kann.mich.richten.2...
Nur.Gott.kann.mich.richten.2...

Cinedubs
The.Equalizer.2.TS.LD.German...
Der.Hauptmann.2017.German.AA...
Der.Hauptmann.2017.German.AA...
Ghost.Stories.2017.German.AC...
Ghost.Stories.2017.German.AC...
Oceans.8.German.DL.AC3.Dubbe...
Oceans.8.German.DL.AC3.Dubbe...
Hereditary.Das.Vermaechtnis....
Hereditary.Das.Vermaechtnis....
Oceans.8.2018.German.DL.AC3D...

Neuerscheinungen 2017-18
Luna.2017.German.AC3.1080p.B...
Die.Gesetze.der.Thermodynami...
Die.Gesetze.der.Thermodynami...
Kings.2017.German.720p.BluRa...
Kings.2017.German.DL.1080p.B...
Winchester.Das.Haus.der.Verd...
Bodycheck.Youngblood.1986.MU...
The.End.2017.GERMAN.DUAL.COM...
The.End.2017.GERMAN.1080p.Bl...
Vater.des.Jahres.2018.German...

XXX
SexArt.18.08.17.Katy.Sky.And...
WoodmanCastingX.18.06.03.Lin...
PrivateSociety.18.08.15.Audr...
Spizoo.18.08.15.Rocky.Emerso...
PornMegaLoad.18.08.19.Codi.V...
SpyFam.18.08.20.Alina.Lopez....
ThaiGirlsWild.18.08.13.Nicha...
With.Milf.And.Sugar.Please.2...
RoccoSiffredi.18.08.17.Lucia...
Spizoo.18.08.17.Lexi.Lore.Tr...
TeensDoPorn.18.08.20.April.R...
X-Art.18.08.15.Milla.Inside....
ZeroTolerance.Nerdy.Girls.Lo...
RKPrime.18.08.17.Riley.Reid....
PureTaboo.18.08.21.Gracie.Ma...
Yonitale.18.08.17.Nedda.Y.An...
PornMegaLoad.18.08.20.Sofia....
RealWifeStories.18.08.17.Kat...
Public.Sex.8.XXX.720p.WEBRip...
Submissived.18.08.20.Khloe.K...

3D
Avengers.Infinity.War.3D.201...
Rampage.Big.Meets.Bigger.3D....
Rampage.Big.Meets.Bigger.3D....
Rampage.Big.Meets.Bigger.3D....
Winter.Games.3D.2013.DUAL.CO...
Tomb.Raider.3D.2018.German.7...
Rampage.Big.Meets.Bigger.3D....
Rampage.Big.Meets.Bigger.3D....
Tomb.Raider.3D.2018.MULTi.CO...
Pacific.Rim.Uprising.3D.2018...
Ready.Player.One.3D.2018.Ger...
Rampage.-.Big.Meets.Bigger.2...
Ready.Player.One.2018.3D.HOU...
Ready.Player.One.2018.3D.HSB...
Ready.Player.One.3D.2018.MUL...

Old_Stuff
Dracula.The.Dark.Lord.2012.G...
21.2008.German.DL.1080p.BluR...
Achtung.fertig.WK.Swissgerma...
The.Ouija.Exorcism.2015.MULT...
Meine.liebe.Rabenmutter.germ...
Da.Vincis.Demons.S01.Complet...
Eragon.Das.Vermaechtnis.der....
Adele.und.das.Geheimnis.des....
Die.fabelhafte.Welt.der.Amel...
Haus.des.Geldes.S01.German.M...
How.I.Met.Your.Mother.S01.Ge...
The.Dark.Knight.Rises.2012.M...
Weissensee.S03.2015.GERMAN.C...
Weissensee.S01+S02.2010.GERM...
Die.Unglaublichen.-.The.Incr...

Filme
Wir.sind.die.Nacht.2010.Germ...
Real.Steel.OPEN.MATTE.2011.G...
Darkman.1990.Uncut.German.AC...
La.vie.en.rose.2007.BDRip.10...
Narcos.S03D01-3.MULTi.COMPLE...
Made.in.Abyss.-.S01.Vol.1.-....
Thelma.2017.GERMAN.DL.1080p....
Narcos.S03.COMPLETE.German.D...
Tom.Clancys.Jack.Ryan.S01.Ge...
Ozark.S02.COMPLETE.GERMAN.DL...
Ozark.S02.COMPLETE.German.DL...
Ozark.S01.COMPLETE.German.DD...
Ozark.S01.COMPLETE.German.DD...
Tom.Clancys.Jack.Ryan.S01.Ge...
The.Last.Man.On.Earth.S04.Ge...
The.Last.Man.On.Earth.S04.Ge...
Missions.S01.GERMAN.DUBBED.7...
Narcos.S03.COMPLETE.German.D...
Gone.Baby.Gone.2007.German.D...
London.Boulevard.2010.German...
Celeste.und.Jesse.German.DL....
CBGB.2013.GERMAN.AC3D.DL.108...
Unsere.Erde.2.2017.German.DT...
Unsere.Erde.2.2017.German.DT...

 
 
Wir.sind.die.Nacht.2010.German.AC3.1080p.BluRay.x265-FuN

Jahr: 2010
Genre: Drama, Horror
Sprache: Deutsch AC3
Laufzeit: 1h 39mn
Bitrate: 3 769 Kbps
Format: MKV
Größe: 2.63 GiB
Release:

Beschreibung:

Die 20-jährige Berlinerin Lena hält sich durch kleinere Diebstähle über Wasser. Beim nächtlichen Beutezug durch einen illegalen Club trifft sie auf die jahrhundertealte Louise. Die mondäne Erscheinung ist die Besitzerin des Clubs und zugleich die Anführerin eines weiblichen Vampir-Trios, dem auch die elegante Charlotte und die abgedrehte Nora angehören. Louise verliebt sich in die verwahrloste Lena und beißt sie in der ersten gemeinsamen Nacht. Fortan erfährt Lena den Fluch und Segen ihres neuen, ewigen Lebens. Sie genießt den Luxus, die Partys, die grenzenlose Freiheit, doch schon bald machen ihr der Blutdurst und die Mordlust ihrer neuen Freundinnen zu schaffen. Als sich auch noch die Berliner Polizei an die Fersen der Frauen heftet und Lena ihre Gefühle für den ermittelnden Kommissar Tom Serner entdeckt, geraten die Ereignisse völlig außer Kontrolle.




Format                                   : Matroska
Format version                           : Version 4 / Version 2
File size                                : 2.63 GiB
Duration                                 : 1h 39mn
Overall bit rate                         : 3 769 Kbps
Encoded date                             : UTC 2018-08-15T13:00:52Z
Writing application                      : HandBrake 1.1.1 2018061800
Writing library                          : Lavf57.7.2

Video
ID                                       : 1
Format                                   : HEVC
Format/Info                              : High Efficiency Video Coding
Format profile                           : Main@L4.0
Codec ID                                 : V_MPEGH/ISO/HEVC
Duration                                 : 1h 39mn
Bit rate                                 : 3 310 Kbps
Width                                    : 1 920 pixels
Height                                   : 816 pixels
Display aspect ratio                     : 2.35:1
Frame rate mode                          : Constant
Frame rate                               : 24.000 fps
Color space                              : YUV
Chroma subsampling                       : 4:2:0
Bit depth                                : 8 bits
Bits/(Pixel*Frame)                       : 0.088
Stream size                              : 2.31 GiB (88%)
Writing library                          : x265 2.6:[Windows][GCC 7.3.0][64 bit] 8bit+10bit+12bit
Encoding settings                        : cpuid=1173503 / frame-threads=3 / numa-pools=8 / wpp / no-pmode / no-pme / no-psnr / no-ssim / log-level=2 / input-csp=1 / input-res=1920x816 / interlace=0 / total-frames=0 / level-idc=0 / high-tier=1 / uhd-bd=0 / ref=3 / no-allow-non-conformance / no-repeat-headers / annexb / no-aud / no-hrd / info / hash=0 / no-temporal-layers / open-gop / min-keyint=24 / keyint=240 / bframes=4 / b-adapt=0 / b-pyramid / bframe-bias=0 / rc-lookahead=15 / lookahead-slices=5 / scenecut=40 / no-intra-refresh / ctu=64 / min-cu-size=8 / no-rect / no-amp / max-tu-size=32 / tu-inter-depth=1 / tu-intra-depth=1 / limit-tu=0 / rdoq-level=0 / dynamic-rd=0.00 / no-ssim-rd / signhide / no-tskip / nr-intra=0 / nr-inter=0 / no-constrained-intra / no-strong-intra-smoothing / max-merge=2 / limit-refs=3 / no-limit-modes / me=1 / subme=2 / merange=57 / temporal-mvp / weightp / no-weightb / no-analyze-src-pics / deblock=0:0 / no-sao / no-sao-non-deblock / rd=2 / no-early-skip / rskip / fast-intra / no-tskip-fast / no-cu-lossless / no-b-intra / no-splitrd-skip / rdpenalty=0 / psy-rd=2.00 / psy-rdoq=0.00 / no-rd-refine / analysis-reuse-mode=0 / no-lossless / cbqpoffs=0 / crqpoffs=0 / rc=crf / crf=21.0 / qcomp=0.60 / qpstep=4 / stats-write=0 / stats-read=0 / ipratio=1.40 / pbratio=1.30 / aq-mode=1 / aq-strength=1.00 / cutree / zone-count=0 / no-strict-cbr / qg-size=32 / no-rc-grain / qpmax=69 / qpmin=0 / no-const-vbv / sar=1 / overscan=0 / videoformat=5 / range=0 / colorprim=1 / transfer=1 / colormatrix=1 / chromaloc=0 / display-window=0 / max-cll=0,0 / min-luma=0 / max-luma=255 / log2-max-poc-lsb=8 / vui-timing-info / vui-hrd-info / slices=1 / no-opt-qp-pps / no-opt-ref-list-length-pps / no-multi-pass-opt-rps / scenecut-bias=0.05 / no-opt-cu-delta-qp / no-aq-motion / no-hdr / no-hdr-opt / no-dhdr10-opt / analysis-reuse-level=5 / scale-factor=0 / refine-intra=0 / refine-inter=0 / refine-mv=0 / no-limit-sao / ctu-info=0 / no-lowpass-dct / refine-mv-type=0 / copy-pic=1
Default                                  : Yes
Forced                                   : No

Audio
ID                                       : 2
Format                                   : AC-3
Format/Info                              : Audio Coding 3
Mode extension                           : CM (complete main)
Format settings, Endianness              : Big
Codec ID                                 : A_AC3
Duration                                 : 1h 39mn
Bit rate mode                            : Constant
Bit rate                                 : 384 Kbps
Channel(s)                               : 6 channels
Channel positions                        : Front: L C R, Side: L R, LFE
Sampling rate                            : 48.0 KHz
Bit depth                                : 16 bits
Compression mode                         : Lossy
Stream size                              : 274 MiB (10%)
Title                                    : Surround
Language                                 : German
Default                                  : Yes
Forced                                   : No

Text
ID                                       : 3
Format                                   : PGS
Codec ID                                 : S_HDMV/PGS
Codec ID/Info                            : The same subtitle format used on BDs/HD-DVDs
Language                                 : German
Default                                  : No
Forced                                   : No



Download:
Share Online Share OnlineShare OnlineShare Online
 

Kommentare