Filecrypt zeigt vereinzelt Files als "n/a". Die Downloads sind trotzdem komplett.

DNS SERVER AENDERNum der staatlichen Zensur zu umgehen. Sollten wir von eurem Provider geseprrt werden, nutzt den TOR BROWSER oder ändert euren DNS SERVER.

Filmwünsche können bei uns im Forum abgegeben werden

Wir Speichern Nicht




 
 
 
Top Releases
Brawl.in.Cell.Block.99.UNCUT...
Burning.2.On.Ice.2016.German...
22.Juli.2018.German.AC3.DL.1...
No.Way.Out.Gegen.die.Flammen...
Ant-Man.and.the.Wasp.2018.Ge...
Ant-Man.and.the.Wasp.2018.Ge...
Ant-Man.and.the.Wasp.2018.Ge...
Ant-Man.And.The.Wasp.2018.CO...
Feinde.Hostiles.2017.German....
Journeyman.2017.German.AC3.D...

Cinedubs
Bad.Spies.2018.German.AC3MD....
Bad.Spies.2018.German.AC3MD....
Searching.2018.German.AC3MD....
Searching.2018.German.AC3MD....
211.Cops.Under.Fire.2018.Ger...
211.Cops.Under.Fire.2018.Ger...
MEG.Biss.bald.2018.German.AC...
MEG.Biss.bald.2018.German.AC...
Mamma.Mia.2.Here.We.Go.Again...
Mamma.Mia.2.Here.We.Go.Again...

Neuerscheinungen 2017-18
Juice.1992.MULTi.COMPLETE.BL...
6.Headed.Shark.Attack.2018.M...
Nach.einer.wahren.Geschichte...
The.Watcher.Willkommen.im.Mo...
The.Watcher.Willkommen.im.Mo...
The.Darkest.Minds.Die.Ueberl...
The.Darkest.Minds.Die.Ueberl...
6.Headed.Shark.Attack.Dont.m...
6.Headed.Shark.Attack.Dont.m...
Stratton.2017.German.AC3.DL....

XXX
BlackedRaw.18.10.04.Kissa.Si...
WankItNow.17.11.17.Kate.Anne...
BreakingAsses.18.10.04.Ashle...
LezCuties.18.10.05.Nesty.Gin...
BigTitsRoundAsses.18.10.04.K...
MistressT.18.02.01.Spit.Roas...
BigTitsAtWork.18.10.03.Valen...
Penthouse.Sinful.Deeds.And.D...
MistressT.18.08.08.Specific....
PureCFNM.18.10.05.Diverse.St...
InTheCrack.E1455.Mia.Evans.X...
WankItNow.18.09.20.Jess.West...
MistressT.18.02.16.Femdom.Ru...
WankItNow.18.09.19.Lucy.Alex...
DigitalPlayground.18.10.01.M...
PlumperPass.18.10.01.Kendra....
ATKGirlfriends.18.10.02.Gia....
NuruMassage.18.10.03.Judy.Jo...
MyFriendsHotMom.18.10.04.Nin...
PureTaboo.18.10.04.Adriana.C...

3D
Jurassic.World.Das.gefallene...
Jurassic.World.Das.gefallene...
Best.of.3D.vol.10.-.12.GERMA...
Die.Biene.Maja.2.Die.Honigsp...
Sharknado.6.The.Last.One.3D....
Solo.A.Star.Wars.Story.3D.20...
Solo.A.Star.Wars.Story.3D.20...
Die.Biene.Maja.2.Die.Honigsp...
Avengers.Infinity.War.3D.201...
Avengers.Infinity.War.3D.201...
Rampage.Big.Meets.Bigger.3D....
Rampage.Big.Meets.Bigger.3D....
Rampage.Big.Meets.Bigger.3D....
Winter.Games.3D.2013.DUAL.CO...
Tomb.Raider.3D.2018.German.7...

Old_Stuff
Britney.Spears.Live.The.Femm...
Buffy.The.Vampire.Slayer.199...
IMAX.Ride.Around.The.World.2...
Schimanski.-.Duisburg.Ruhror...
Akte.X.S02.German.DTS.DL.108...
How.I.Met.Your.Mother.S02.Ge...
Akte.X.S01.German.DTS.DL.108...
Den.Himmel.gibts.echt.DL.108...
Vikings.S02.German.DL.1080p....
Be.Kind.Rewind.Abgedreht.200...
Be.Kind.Rewind.Abgedreht.200...
Dracula.The.Dark.Lord.2012.G...
21.2008.German.DL.1080p.BluR...
Achtung.fertig.WK.Swissgerma...
The.Ouija.Exorcism.2015.MULT...

Filme
Once.Upon.a.Time.S07.German....
Once.Upon.a.Time.S07.German....
Animal.Kingdom.S03.GERMAN.72...
Snowfall.S02.GERMAN.DUBBED.7...
Feinde.Hostiles.2017.German....
Man.Eaters.-.Leichenhaus.des...
Die.unglaubliche.Reise.in.ei...
Der.Engel.mit.der.Moerderhan...
Ghoulies.II.GERMAN.1988.DL.1...
Ada.-.Frau.mit.Vergangenheit...
Judy.2014.German.DL.1080p.Bl...
Muse.2017.German.DTS.DL.1080...
205.Zimmer.der.Angst.2011.Ge...
Attack.of.the.Undead.2011.Ge...
Attack.of.the.Yakuza.2008.Ge...
Attack.of.the.Nazi.Herbals.2...
Tootsie.1982.German.AC3D.DL....
Voll.verkatert.2016.German.A...
Ein.ganz.verrueckter.Freitag...
Man.Eaters.Leichenhaus.des.G...
Ein.Vogel.auf.dem.Drahtseil....
Mission.Impossible.III.2006....
The.Purge.S01.German.DD+51.D...
The.Purge.S01.German.DD+51.D...

 
 
Bad.Spies.2018.German.AC3MD.DL.720p.HC.WEBRip.x264-PS

Jahr: 2017
Genre: Komödie
Sprache: Deutsch AC3 | Englisch AC3
Laufzeit: 1h 56mn
Bitrate: 3 164 Kbps
Format: MKV
Größe: 2.58 GiB
Release:

Beschreibung:

Die neurotische Audrey (Mila Kunis) fällt eines Tages aus allen Wolken, als sie herausfindet, dass ihr vermeintlich so langweiliger Ex-Freund Drew (Justin Theroux) die ganze Zeit ein internationaler Spitzenspion war. Als ihr ein USB-Stick mit gefährlichen Daten in die Hände fällt und sie zusammen mit ihrer besten Freundin, der chaotischen Morgan (Kate McKinnon), einen Mordanschlag auf ihren Verflossenen beobachtet, macht sie sich aus dem Staub und flüchtet aus Amerika. Es beginnt eine wilde Jagd durch die Hauptstädte Europas, bei der den beiden Freundinnen nicht nur die CIA, sondern auch osteuropäische Killer sowie ein mysteriöser britischer Geheimagent namens Sebastian (Sam Heughan) auf den Fersen sind. Dabei stellt sich schnell heraus, dass Audrey und Morgan nicht unbedingt das Zeug dazu haben, gute Agentinnen zu sein…

Audio1: German AC3 2.0 @ 192 kbps (Mic)
Subs: Asia hardcoded



Complete name                            : ps-badspies.hcweb72.mkv
Format                                   : Matroska
Format version                           : Version 4 / Version 2
File size                                : 2.58 GiB
Duration                                 : 1h 56mn
Overall bit rate                         : 3 164 Kbps
Encoded date                             : UTC 2018-10-13 15:33:16
Writing application                      : mkvmerge v8.3.0 ('Over the Horizon') 64bit
Writing library                          : libebml v1.3.1 + libmatroska v1.4.2
DURATION                                 : 01:56:35.968000000
NUMBER_OF_FRAMES                         : 218624
NUMBER_OF_BYTES                          : 167903232
_STATISTICS_WRITING_APP                  : mkvmerge v8.3.0 ('Over the Horizon') 64bit
_STATISTICS_WRITING_DATE_UTC             : 2018-10-13 15:33:16
_STATISTICS_TAGS                         : BPS DURATION NUMBER_OF_FRAMES NUMBER_OF_BYTES

Video
ID                                       : 1
Format                                   : AVC
Format/Info                              : Advanced Video Codec
Format profile                           : High@L4.1
Format settings, CABAC                   : Yes
Format settings, ReFrames                : 4 frames
Codec ID                                 : V_MPEG4/ISO/AVC
Duration                                 : 1h 56mn
Bit rate                                 : 2 718 Kbps
Width                                    : 1 280 pixels
Height                                   : 536 pixels
Display aspect ratio                     : 2.40:1
Frame rate mode                          : Constant
Frame rate                               : 29.970 fps
Color space                              : YUV
Chroma subsampling                       : 4:2:0
Bit depth                                : 8 bits
Scan type                                : Progressive
Bits/(Pixel*Frame)                       : 0.132
Stream size                              : 2.21 GiB (86%)
Default                                  : Yes
Forced                                   : No
Color primaries                          : BT.709
Transfer characteristics                 : BT.709
Matrix coefficients                      : BT.709
DURATION                                 : 01:56:35.922000000
NUMBER_OF_FRAMES                         : 209668
NUMBER_OF_BYTES                          : 2429469719
_STATISTICS_WRITING_APP                  : mkvmerge v8.3.0 ('Over the Horizon') 64bit
_STATISTICS_WRITING_DATE_UTC             : 2018-10-13 15:33:16
_STATISTICS_TAGS                         : BPS DURATION NUMBER_OF_FRAMES NUMBER_OF_BYTES

Audio #1
ID                                       : 2
Format                                   : AC-3
Format/Info                              : Audio Coding 3
Mode extension                           : CM (complete main)
Format settings, Endianness              : Big
Codec ID                                 : A_AC3
Duration                                 : 1h 56mn
Bit rate mode                            : Constant
Bit rate                                 : 192 Kbps
Channel(s)                               : 2 channels
Channel positions                        : Front: L R
Sampling rate                            : 48.0 KHz
Bit depth                                : 16 bits
Compression mode                         : Lossy
Stream size                              : 160 MiB (6%)
Language                                 : German
Default                                  : Yes
Forced                                   : Yes
DURATION                                 : 01:56:35.904000000
NUMBER_OF_FRAMES                         : 218622
NUMBER_OF_BYTES                          : 167901696
_STATISTICS_WRITING_APP                  : mkvmerge v8.3.0 ('Over the Horizon') 64bit
_STATISTICS_WRITING_DATE_UTC             : 2018-10-13 15:33:16
_STATISTICS_TAGS                         : BPS DURATION NUMBER_OF_FRAMES NUMBER_OF_BYTES

Audio #2
ID                                       : 3
Format                                   : AC-3
Format/Info                              : Audio Coding 3
Format profile                           : Dolby Digital
Mode extension                           : CM (complete main)
Format settings, Endianness              : Big
Codec ID                                 : A_AC3
Duration                                 : 1h 56mn
Bit rate mode                            : Constant
Bit rate                                 : 192 Kbps
Channel(s)                               : 2 channels
Channel positions                        : Front: L R
Sampling rate                            : 48.0 KHz
Bit depth                                : 16 bits
Compression mode                         : Lossy
Delay relative to video                  : 31ms
Stream size                              : 160 MiB (6%)
Language                                 : English
Default                                  : No
Forced                                   : No


Download:
Share Online Share OnlineShare OnlineShare Online
 

Kommentare